Sign in to follow this  
Followers 0
TM™

Jallikattu 2019 Malayalam 1080p 1.2GB DTS™

5 posts in this topic

Jallikattu 2019 Malayalam 1080p 1.2GB DTS™

313163.jpg

SCREENSHOTS

Click on image to view full size

dd31c4a276ed7bd34e12b5400b5e0795.md.jpg
adb5e54cabccacc43e5a247914e620c4.md.jpg
32a9e68d34bde7a5349c2bea70997d1e.md.jpg
116d122a861c4ec749dd328cd69db2c3.md.jpg
048e743dec409cac6b19908633bc786f.md.jpg
1bab68a1b56e19b1e56f9fcaf2ec6169.md.jpg

MEDIA INFORMATION

Complete name                            : www.DVDWO.site.Jallikattu.2019.Malayalam.1080p.DTS.™.mkv
Format                                   : Matroska
Format version                           : Version 4
File size                                : 1.22 GiB
Duration                                 : 1 h 34 min
Overall bit rate                         : 1 852 kb/s
Movie name                               : www.DVDWO.site
Encoded date                             : UTC 2019-11-03 08:24:22
Writing application                      : mkvmerge v8.3.0 ('Over the Horizon') 64bit
Writing library                          : libebml v1.3.1 + libmatroska v1.4.2

Video
ID                                       : 1
Format                                   : HEVC
Format/Info                              : High Efficiency Video Coding
Format profile                           : Main@L4@Main
Codec ID                                 : V_MPEGH/ISO/HEVC
Duration                                 : 1 h 34 min
Bit rate                                 : 1 466 kb/s
Width                                    : 1 920 pixels
Height                                   : 1 080 pixels
Display aspect ratio                     : 16:9
Frame rate mode                          : Constant
Frame rate                               : 24.000 FPS
Color space                              : YUV
Chroma subsampling                       : 4:2:0
Bit depth                                : 8 bits
Bits/(Pixel*Frame)                       : 0.029
Stream size                              : 986 MiB (79%)
Title                                    : www.DVDWO.site
Default                                  : Yes
Forced                                   : No

Audio
ID                                       : 2
Format                                   : DTS
Format/Info                              : Digital Theater Systems
Codec ID                                 : A_DTS
Duration                                 : 1 h 34 min
Bit rate mode                            : Constant
Bit rate                                 : 384 kb/s
Channel(s)                               : 2 channels
Channel layout                           : L R
Sampling rate                            : 48.0 kHz
Frame rate                               : 93.750 FPS (512 SPF)
Bit depth                                : 16 bits
Compression mode                         : Lossy
Stream size                              : 258 MiB (21%)
Title                                    : www.DVDWO.site
Language                                 : Malayalam
Default                                  : No
Forced                                   : No

Text
ID                                       : 3
Format                                   : UTF-8
Codec ID                                 : S_TEXT/UTF8
Codec ID/Info                            : UTF-8 Plain Text
Duration                                 : 1 h 21 min
Bit rate                                 : 37 b/s
Count of elements                        : 736
Stream size                              : 22.1 KiB (0%)
Title                                    : www.DVDWO.site
Default                                  : Yes
Forced                                   : No

 

torrborder.gif

Google-Drive icon
torrborder.gif

:clapping: Please Seed Back After Download:clapping:

 

2 people like this

Share this post


Link to post
Share on other sites

Please sign in to comment

You will be able to leave a comment after signing in



Sign In Now
Sign in to follow this  
Followers 0