Sign in to follow this  
Followers 0
TM™

The Lion King 2019 English 1080p 12.8GB DTS 7.1 AC3 ™

2 posts in this topic

The Lion King [ 2019 English 1080p 12.8GB DTS 7.1 AC3]™

Image result for the lion king movie

SCREENSHOTS

Click on image to view full size

fdc6a64aa1b574574be264734fe6b069.md.png
05e6c6d5ad9991b1ddbf9e773e768e6f.md.png
430ba47caf551f25dc435f3c77c941d4.md.png
cc9340385c516302ef54103299a4e90b.md.png
e0c826cd6ca92c3d83f55515372345b0.md.png
a557e53bc9c19a787e96d765fc561dc2.md.png

MEDIA INFORMATION

Complete name               : www.DVDWO.site.The.Lion.King.2019.1080p.Bluray.DTS.7.1.™.mkv
Format                      : Matroska
Format version              : Version 4
File size                   : 12.8 GiB
Duration                    : 1 h 58 min
Overall bit rate mode       : Variable
Overall bit rate            : 15.6 Mb/s
Movie name                  : www.DVDWO.site
Encoded date                : UTC 2019-10-10 19:54:51
Writing application         : mkvmerge v8.2.0 ('World of Adventure') 32bit
Writing library             : libebml v1.3.1 + libmatroska v1.4.2

Video
ID                          : 2
Format                      : AVC
Format/Info                 : Advanced Video Codec
Format profile              : High@L4
Format settings             : CABAC / 4 Ref Frames
Format settings, CABAC      : Yes
Format settings, Reference  : 4 frames
Codec ID                    : V_MPEG4/ISO/AVC
Duration                    : 1 h 58 min
Bit rate                    : 10 000 kb/s
Width                       : 1 920 pixels
Height                      : 1 080 pixels
Display aspect ratio        : 16:9
Frame rate mode             : Constant
Frame rate                  : 23.976 (24000/1001) FPS
Color space                 : YUV
Chroma subsampling          : 4:2:0
Bit depth                   : 8 bits
Scan type                   : Progressive
Bits/(Pixel*Frame)          : 0.201
Stream size                 : 8.10 GiB (63%)
Title                       : www.DVDWO.site
Writing library             : x264 core 157 r2935 545de2f

Default                     : Yes
Forced                      : No
Color range                 : Limited
Color primaries             : BT.709
Transfer characteristics    : BT.709
Matrix coefficients         : BT.709

Audio #1
ID                          : 3
Format                      : AC-3
Format/Info                 : Audio Coding 3
Commercial name             : Dolby Digital
Codec ID                    : A_AC3
Duration                    : 1 h 58 min
Bit rate mode               : Constant
Bit rate                    : 640 kb/s
Channel(s)                  : 6 channels
Channel layout              : L R C LFE Ls Rs
Sampling rate               : 48.0 kHz
Frame rate                  : 31.250 FPS (1536 SPF)
Bit depth                   : 16 bits
Compression mode            : Lossy
Delay relative to video     : -5 ms
Stream size                 : 541 MiB (4%)
Title                       : www.DVDWO.site
Language                    : English
Service kind                : Complete Main
Default                     : Yes
Forced                      : No

Audio #2
ID                          : 4
Format                      : DTS XLL
Format/Info                 : Digital Theater Systems
Commercial name             : DTS-HD Master Audio
Codec ID                    : A_DTS
Duration                    : 1 h 58 min
Bit rate mode               : Variable
Bit rate                    : 5 091 kb/s
Channel(s)                  : 8 channels
Channel layout              : C L R LFE Lb Rb Lss Rss
Sampling rate               : 48.0 kHz
Frame rate                  : 93.750 FPS (512 SPF)
Bit depth                   : 24 bits
Compression mode            : Lossless
Delay relative to video     : -5 ms
Stream size                 : 4.21 GiB (33%)
Title                       : www.DVDWO.site
Language                    : English
Default                     : No
Forced                      : No

 

torrborder.gif

Mega icon
 
torrborder.gif

:clapping: Please Seed Back After Download   :clapping:

 

 

 

 

1 person likes this

Share this post


Link to post
Share on other sites

Please sign in to comment

You will be able to leave a comment after signing in



Sign In Now
Sign in to follow this  
Followers 0