Sign in to follow this  
Followers 0
TM™

Thanneer Mathan Dinangal 2019 Malayalam 4K Upscaled

5 posts in this topic

Thanneer Mathan Dinangal 2019 Malayalam 4K Upscaled 

4aATTAlYdUa3HfHNfbPnpjOEvPU.jpg

MEDIA INFORMATION

Complete name                            : Thanneer.Mathan.Dinangal.2019.Malayalam.4K.Upscaled.mkv
Format                                   : Matroska
Format version                           : Version 4
File size                                : 9.41 GiB
Duration                                 : 2 h 10 min
Overall bit rate                         : 10.3 Mb/s
Encoded date                             : UTC 2019-10-08 03:55:13
Writing application                      : mkvmerge v8.3.0 ('Over the Horizon') 64bit
Writing library                          : libebml v1.3.1 + libmatroska v1.4.2

Video
ID                                       : 1
Format                                   : AVC
Format/Info                              : Advanced Video Codec
Format profile                           : Main@L5.1
Format settings                          : CABAC / 4 Ref Frames
Format settings, CABAC                   : Yes
Format settings, Reference frames        : 4 frames
Format settings, GOP                     : M=4, N=30
Codec ID                                 : V_MPEG4/ISO/AVC
Duration                                 : 2 h 10 min
Bit rate                                 : 10.0 Mb/s
Width                                    : 3 840 pixels
Height                                   : 1 600 pixels
Display aspect ratio                     : 2.40:1
Frame rate mode                          : Constant
Frame rate                               : 30.000 FPS
Color space                              : YUV
Chroma subsampling                       : 4:2:0
Bit depth                                : 8 bits
Scan type                                : Progressive
Bits/(Pixel*Frame)                       : 0.054
Stream size                              : 9.12 GiB (97%)
Language                                 : English
Default                                  : Yes
Forced                                   : No
Color range                              : Limited
Color primaries                          : BT.709
Transfer characteristics                 : BT.709
Matrix coefficients                      : BT.709

Audio
ID                                       : 2
Format                                   : AAC LC
Format/Info                              : Advanced Audio Codec Low Complexity
Codec ID                                 : A_AAC-2
Duration                                 : 2 h 10 min
Bit rate                                 : 317 kb/s
Channel(s)                               : 2 channels
Channel layout                           : L R
Sampling rate                            : 48.0 kHz
Frame rate                               : 46.875 FPS (1024 SPF)
Compression mode                         : Lossy
Stream size                              : 296 MiB (3%)
Language                                 : English
Default                                  : Yes
Forced                                   : No

SCREENSHOTS

Click on image to view full size

2744e65cb7948a5e2eef56f99456e96d.md.jpg
757ecdbca106fd3c81f2e34526fb13c4.md.jpg
66f707bd81652f9679c5aa26b2f0bf42.md.jpg
d6666b67a61fc58d6e22d317ad659e9a.md.jpg
a43b47c9b66293fb323a57b00f441053.md.jpg
28cddd3e9f77ee9e20fcc59cee476bf5.md.jpg

 

torrborder.gif

torrborder.gif
 
:clapping:

 

 

5 people like this

Share this post


Link to post
Share on other sites

Posted (edited)

namichuO.o bro

superb shares

Edited by E.D.I.T.H
1 person likes this

Share this post


Link to post
Share on other sites

Please sign in to comment

You will be able to leave a comment after signing in



Sign In Now
Sign in to follow this  
Followers 0