TM™

Administrators
  • Content count

    44
  • Joined

  • Last visited

  • Days Won

    4

TM™ last won the day on November 25

TM™ had the most liked content!

Community Reputation

32 Excellent

5 Followers

About TM™

  • Rank
    Advanced Member

Recent Profile Visitors

221 profile views
  1. Villain 2017 Malayalam 1080 x264 AAC 5.1 [2GB]™ SCREENSHOTS Click on image to view full size MEDIA INFORMATION Complete name : www.DVDWO.pw.Villain.2017.Malayalam.1080.x264.AAC.5.1.[2GB]™.mkv Format : Matroska Format version : Version 4 File size : 1.99 GiB Duration : 2 h 21 min Overall bit rate : 2 012 kb/s Movie name : www.DVDWO.pw Encoded date : UTC 2019-12-08 20:43:00 Writing application : mkvmerge v8.3.0 ('Over the Horizon') 64bit Writing library : libebml v1.3.1 + libmatroska v1.4.2 Video ID : 1 Format : AVC Format/Info : Advanced Video Codec Format profile : High 10@L4.1 Format settings : CABAC / 4 Ref Frames Format settings, CABAC : Yes Format settings, Reference frames : 4 frames Codec ID : V_MPEG4/ISO/AVC Duration : 2 h 21 min Bit rate : 1 695 kb/s Width : 1 920 pixels Height : 800 pixels Display aspect ratio : 2.40:1 Frame rate mode : Constant Frame rate : 25.000 FPS Color space : YUV Chroma subsampling : 4:2:0 Bit depth : 10 bits Scan type : Progressive Bits/(Pixel*Frame) : 0.044 Stream size : 1.68 GiB (84%) Title : www.DVDWO.pw Writing library : x264 core 157 r2935 545de2f Default : Yes Forced : No Audio ID : 2 Format : AAC LC Format/Info : Advanced Audio Codec Low Complexity Codec ID : A_AAC-2 Duration : 2 h 21 min Bit rate : 315 kb/s Channel(s) : 6 channels Channel layout : C L R Ls Rs LFE Sampling rate : 44.1 kHz Frame rate : 43.066 FPS (1024 SPF) Compression mode : Lossy Stream size : 319 MiB (16%) Title : www.DVDWO.pw Default : Yes Forced : No Text ID : 3 Format : UTF-8 Codec ID : S_TEXT/UTF8 Codec ID/Info : UTF-8 Plain Text Duration : 2 h 14 min Bit rate : 56 b/s Count of elements : 1841 Stream size : 55.9 KiB (0%) Title : www.DVDWO.pw Default : Yes Forced : No CLICK HERE TO DOWNLOAD Please Seed Back After Download
  2. Luca 2019 Malayalam 1080p HEVC AAC 5.1 [1.3GB] ™ SCREENSHOTS Click on image to view full size CLICK HERE TO DOWNLOAD Please Seed Back After Download
  3. 96 2018 Tamil 720p x264 AAC 850MB SCREENSHOTS Click on image to view full size MEDIA INFORMATION Complete name : www.DVDWO.pw.96.2018.Tamil.720p.x264.AAC.850MB.mkv Format : Matroska Format version : Version 4 File size : 867 MiB Duration : 2 h 31 min Overall bit rate : 799 kb/s Movie name : www.DVDWO.pw Encoded date : UTC 2019-12-05 06:04:46 Writing application : mkvmerge v8.3.0 ('Over the Horizon') 64bit Writing library : libebml v1.3.1 + libmatroska v1.4.2 Video ID : 1 Format : AVC Format/Info : Advanced Video Codec Format profile : High 10@L4.1 Format settings : CABAC / 4 Ref Frames Format settings, CABAC : Yes Format settings, Reference frames : 4 frames Codec ID : V_MPEG4/ISO/AVC Duration : 2 h 31 min Bit rate : 637 kb/s Width : 1 280 pixels Height : 536 pixels Display aspect ratio : 2.40:1 Frame rate mode : Constant Frame rate : 25.000 FPS Color space : YUV Chroma subsampling : 4:2:0 Bit depth : 10 bits Scan type : Progressive Bits/(Pixel*Frame) : 0.037 Stream size : 690 MiB (80%) Title : www.DVDWO.pw Writing library : x264 core 157 r2935 545de2f Default : Yes Forced : No Audio ID : 2 Format : AAC LC Format/Info : Advanced Audio Codec Low Complexity Codec ID : A_AAC-2 Duration : 2 h 31 min Bit rate : 160 kb/s Channel(s) : 6 channels Channel layout : C L R Ls Rs LFE Sampling rate : 44.1 kHz Frame rate : 43.066 FPS (1024 SPF) Compression mode : Lossy Stream size : 174 MiB (20%) Title : www.DVDWO.pw Default : Yes Forced : No Text ID : 3 Format : UTF-8 Codec ID : S_TEXT/UTF8 Codec ID/Info : UTF-8 Plain Text Duration : 2 h 29 min Bit rate : 51 b/s Count of elements : 1777 Stream size : 56.3 KiB (0%) Title : www.DVDWO.pw Default : Yes Forced : No CLICK HERE TO DOWNLOAD Please Seed Back After Download
  4. 96 2018 Tamil 1080p x264 AC3 1.5GB™ SCREENSHOTS Click on image to view full size MEDIA INFORMATION mplete name : www.DVDWO.pw.96.2018.Tamil.1080p.1.4GB.mkv Format : Matroska Format version : Version 4 File size : 1.50 GiB Duration : 2 h 31 min Overall bit rate : 1 413 kb/s Movie name : www.DVDWO.pw Encoded date : UTC 2019-12-04 05:38:54 Writing application : mkvmerge v8.3.0 ('Over the Horizon') 64bit Writing library : libebml v1.3.1 + libmatroska v1.4.2 Video ID : 1 Format : AVC Format/Info : Advanced Video Codec Format profile : High 10@L4.1 Format settings : CABAC / 4 Ref Frames Format settings, CABAC : Yes Format settings, Reference frames : 4 frames Codec ID : V_MPEG4/ISO/AVC Duration : 2 h 31 min Bit rate : 1 156 kb/s Width : 1 912 pixels Height : 808 pixels Display aspect ratio : 2.35:1 Frame rate mode : Constant Frame rate : 25.000 FPS Color space : YUV Chroma subsampling : 4:2:0 Bit depth : 10 bits Scan type : Progressive Bits/(Pixel*Frame) : 0.030 Stream size : 1.22 GiB (82%) Title : www.DVDWO.pw Writing library : x264 core 157 r2935 545de2f Default : Yes Forced : No Audio ID : 2 Format : AC-3 Format/Info : Audio Coding 3 Commercial name : Dolby Digital Codec ID : A_AC3 Duration : 2 h 31 min Bit rate mode : Constant Bit rate : 256 kb/s Channel(s) : 6 channels Channel layout : L R C LFE Ls Rs Sampling rate : 44.1 kHz Frame rate : 28.711 FPS (1536 SPF) Compression mode : Lossy Stream size : 278 MiB (18%) Title : www.DVDWO.pw Service kind : Complete Main Default : Yes Forced : No CLICK HERE TO DOWNLOAD Please Seed Back After Download
  5. Kaithi 2019 Tamil 720p 750MB x264 HE-AAC™ SCREENSHOTS Click on image to view full size MEDIA INFORMATION Complete name : www.DVDWO.site.Kaithi.2019.Tamil.720p.750MB.x264.HE-AAC.mkv Format : Matroska Format version : Version 2 File size : 796 MiB Duration : 2 h 24 min Overall bit rate : 768 kb/s Encoded date : UTC 2019-11-25 21:26:49 Writing application : mkvmerge v29.0.0 ('Like It Or Not') 64-bit Writing library : libebml v1.3.6 + libmatroska v1.4.9 Video ID : 1 Format : AVC Format/Info : Advanced Video Codec Format profile : High 10@L4.1 Format settings : CABAC / 4 Ref Frames Format settings, CABAC : Yes Format settings, Reference frames : 4 frames Codec ID : V_MPEG4/ISO/AVC Duration : 2 h 24 min Bit rate : 694 kb/s Width : 1 280 pixels Height : 536 pixels Display aspect ratio : 2.40:1 Frame rate mode : Constant Frame rate : 24.000 FPS Color space : YUV Chroma subsampling : 4:2:0 Bit depth : 10 bits Scan type : Progressive Bits/(Pixel*Frame) : 0.042 Stream size : 719 MiB (90%) Writing library : x264 core 157 r2935 545de2f Default : Yes Forced : No Audio ID : 2 Format : AAC LC SBR Format/Info : Advanced Audio Codec Low Complexity with Spectral Band Replication Commercial name : HE-AAC Format settings : Explicit Codec ID : A_AAC-2 Duration : 2 h 24 min Bit rate : 72.0 kb/s Channel(s) : 2 channels Channel layout : L R Sampling rate : 48.0 kHz Frame rate : 23.438 FPS (2048 SPF) Compression mode : Lossy Delay relative to video : 31 ms Stream size : 74.6 MiB (9%) Language : English Default : Yes Forced : No Text ID : 3 Format : UTF-8 Codec ID : S_TEXT/UTF8 Codec ID/Info : UTF-8 Plain Text Duration : 2 h 19 min Bit rate : 61 b/s Count of elements : 1953 Stream size : 62.7 KiB (0%) Language : English Default : Yes Forced : No CLICK HERE TO DOWNLOAD Please Seed Back After Download
  6. It Chapter Two 2019 1080p x264 1.GB HE-ACC SCREENSHOTS Click on image to view full size MEDIA INFORMATION Complete name : www.DVDWO.site.It.Chapter.Two.2019.1080p.HE-ACC.™.mkv Format : Matroska Format version : Version 4 File size : 1 022 MiB Duration : 2 h 49 min Overall bit rate : 844 kb/s Movie name : www.DVDWO.site Encoded date : UTC 2019-11-23 16:10:15 Writing application : mkvmerge v8.3.0 ('Over the Horizon') 64bit Writing library : libebml v1.3.1 + libmatroska v1.4.2 Video ID : 1 Format : AVC Format/Info : Advanced Video Codec Format profile : High@L4 Format settings : CABAC / 4 Ref Frames Format settings, CABAC : Yes Format settings, Reference frames : 4 frames Codec ID : V_MPEG4/ISO/AVC Duration : 2 h 49 min Bit rate : 770 kb/s Width : 1 920 pixels Height : 800 pixels Display aspect ratio : 2.40:1 Frame rate mode : Constant Frame rate : 23.976 (24000/1001) FPS Color space : YUV Chroma subsampling : 4:2:0 Bit depth : 8 bits Scan type : Progressive Bits/(Pixel*Frame) : 0.021 Stream size : 932 MiB (91%) Title : www.DVDWO.site Writing library : x264 core 157 r2935 545de2f Default : Yes Forced : No Audio ID : 2 Format : AAC LC SBR Format/Info : Advanced Audio Codec Low Complexity with Spectral Band Replication Commercial name : HE-AAC Format settings : Explicit Codec ID : A_AAC-2 Duration : 2 h 49 min Bit rate : 72.0 kb/s Channel(s) : 2 channels Channel layout : L R Sampling rate : 48.0 kHz Frame rate : 23.438 FPS (2048 SPF) Compression mode : Lossy Stream size : 87.2 MiB (9%) Title : www.DVDWO.site Language : new Default : Yes Forced : No Text ID : 3 Format : UTF-8 Codec ID : S_TEXT/UTF8 Codec ID/Info : UTF-8 Plain Text Duration : 2 h 44 min Bit rate : 50 b/s Count of elements : 2406 Stream size : 60.5 KiB (0%) Title : www.DVDWO.site Default : Yes Forced : No CLICK HERE TO DOWNLOAD Please Seed Back After Download
  7. Porinju Mariyam Jose 2019 Malayalam 1080p 2.5GB TSA SCREENSHOTS Click on image to view full size CLICK HERE TO DOWNLOAD Please Seed Back After Download
  8. Happy Husbands 2010 Malayalam 1080p 1.6GB DTS™ SCREENSHOTS Click on image to view full size CLICK HERE TO DOWNLOAD Please Seed Back After Download
  9. Dora And The Lost City Of Gold 2019 1080p 1.2GB DTS™ SCREENSHOTS Click on image to view full size CLICK HERE TO DOWNLOAD Please Seed Back After Download
  10. Bigil - Singappenney Video Song [Tamil] SCREENSHOTS Click on image to view full size CLICK HERE TO DOWNLOAD Please Seed Back After Download
  11. Bigil - Verithanam Video Song [Tamil] SCREENSHOTS Click on image to view full size CLICK HERE TO DOWNLOAD Please Seed Back After Download
  12. Jallikattu 2019 Malayalam 1080p 1.2GB DTS™ SCREENSHOTS Click on image to view full size MEDIA INFORMATION Complete name : www.DVDWO.site.Jallikattu.2019.Malayalam.1080p.DTS.™.mkv Format : Matroska Format version : Version 4 File size : 1.22 GiB Duration : 1 h 34 min Overall bit rate : 1 852 kb/s Movie name : www.DVDWO.site Encoded date : UTC 2019-11-03 08:24:22 Writing application : mkvmerge v8.3.0 ('Over the Horizon') 64bit Writing library : libebml v1.3.1 + libmatroska v1.4.2 Video ID : 1 Format : HEVC Format/Info : High Efficiency Video Coding Format profile : Main@L4@Main Codec ID : V_MPEGH/ISO/HEVC Duration : 1 h 34 min Bit rate : 1 466 kb/s Width : 1 920 pixels Height : 1 080 pixels Display aspect ratio : 16:9 Frame rate mode : Constant Frame rate : 24.000 FPS Color space : YUV Chroma subsampling : 4:2:0 Bit depth : 8 bits Bits/(Pixel*Frame) : 0.029 Stream size : 986 MiB (79%) Title : www.DVDWO.site Default : Yes Forced : No Audio ID : 2 Format : DTS Format/Info : Digital Theater Systems Codec ID : A_DTS Duration : 1 h 34 min Bit rate mode : Constant Bit rate : 384 kb/s Channel(s) : 2 channels Channel layout : L R Sampling rate : 48.0 kHz Frame rate : 93.750 FPS (512 SPF) Bit depth : 16 bits Compression mode : Lossy Stream size : 258 MiB (21%) Title : www.DVDWO.site Language : Malayalam Default : No Forced : No Text ID : 3 Format : UTF-8 Codec ID : S_TEXT/UTF8 Codec ID/Info : UTF-8 Plain Text Duration : 1 h 21 min Bit rate : 37 b/s Count of elements : 736 Stream size : 22.1 KiB (0%) Title : www.DVDWO.site Default : Yes Forced : No CLICK HERE TO DOWNLOAD Please Seed Back After Download
  13. B Tech 2018 Malayalam 1080p 3.5GB DTS™ SCREENSHOTS Click on image to view full size MEDIA INFORMATIONS Complete name : www.DVDWO.site.B.Tech.2018.Malayalam.1080p.3.5GB.DTS™.mkv Format : Matroska Format version : Version 4 File size : 3.45 GiB Duration : 2 h 17 min Overall bit rate : 3 591 kb/s Movie name : www.DVDWO.site Encoded date : UTC 2019-10-18 20:54:38 Writing application : mkvmerge v8.3.0 ('Over the Horizon') 64bit Writing library : libebml v1.3.1 + libmatroska v1.4.2 Video ID : 1 Format : AVC Format/Info : Advanced Video Codec Format profile : High@L4 Format settings : CABAC / 4 Ref Frames Format settings, CABAC : Yes Format settings, Reference frames : 4 frames Codec ID : V_MPEG4/ISO/AVC Duration : 2 h 17 min Bit rate : 2 200 kb/s Width : 1 920 pixels Height : 1 080 pixels Display aspect ratio : 16:9 Frame rate mode : Constant Frame rate : 25.000 FPS Color space : YUV Chroma subsampling : 4:2:0 Bit depth : 8 bits Scan type : Progressive Bits/(Pixel*Frame) : 0.042 Stream size : 2.09 GiB (61%) Title : www.DVDWO.site Writing library : x264 core 152 r2854 e9a5903 Encoding settings : cabac=1 / ref=3 / deblock=1:0:0 / analyse=0x3:0x113 / me=hex / subme=7 / psy=1 / psy_rd=1.00:0.00 / mixed_ref=1 / me_range=16 / chroma_me=1 / trellis=1 / 8x8dct=1 / cqm=0 / deadzone=21,11 / fast_pskip=1 / chroma_qp_offset=-2 / threads=34 / lookahead_threads=5 / sliced_threads=0 / nr=0 / decimate=1 / interlaced=0 / bluray_compat=0 / constrained_intra=0 / bframes=3 / b_pyramid=2 / b_adapt=1 / b_bias=0 / direct=1 / weightb=1 / open_gop=0 / weightp=2 / keyint=50 / keyint_min=26 / scenecut=0 / intra_refresh=0 / rc_lookahead=40 / rc=abr / mbtree=1 / bitrate=2200 / ratetol=1.0 / qcomp=0.60 / qpmin=0 / qpmax=69 / qpstep=4 / vbv_maxrate=2860 / vbv_bufsize=3300 / nal_hrd=none / filler=0 / ip_ratio=1.40 / aq=1:1.00 Default : Yes Forced : No Audio ID : 3 Format : DTS Format/Info : Digital Theater Systems Codec ID : A_DTS Duration : 2 h 17 min Bit rate mode : Constant Bit rate : 1 413 kb/s Channel(s) : 6 channels Channel layout : C L R Ls Rs LFE Sampling rate : 48.0 kHz Frame rate : 93.750 FPS (512 SPF) Bit depth : 24 bits Compression mode : Lossy Stream size : 1.36 GiB (39%) Title : www.DVDWO.site Default : Yes Forced : No CLICK HERE TO DOWNLOAD Please Seed Back After Download
  14. Brother's Day 2019 Malayalam HEVC 1080p 1.8GB DTS™ SCREENSHOTS Click on image to view full size MEDIA INFORMATIONS Complete name : www.DVDWO.site.Brothers.Day.2019.Malayalam.1080p.1.8GB.DTS™.mkv Format : Matroska Format version : Version 4 File size : 1.90 GiB Duration : 2 h 43 min Overall bit rate : 1 662 kb/s Movie name : www.DVDWO.site Encoded date : UTC 2019-10-17 04:58:57 Writing application : mkvmerge v8.3.0 ('Over the Horizon') 64bit Writing library : libebml v1.3.1 + libmatroska v1.4.2 Video ID : 1 Format : HEVC Format/Info : High Efficiency Video Coding Format profile : Main@L4@Main Codec ID : V_MPEGH/ISO/HEVC Duration : 2 h 43 min Bit rate : 1 276 kb/s Width : 1 920 pixels Height : 1 080 pixels Display aspect ratio : 16:9 Frame rate mode : Constant Frame rate : 24.000 FPS Color space : YUV Chroma subsampling : 4:2:0 Bit depth : 8 bits Bits/(Pixel*Frame) : 0.026 Stream size : 1.45 GiB (77%) Title : www.DVDWO.site Default : Yes Forced : No Audio ID : 2 Format : DTS Format/Info : Digital Theater Systems Codec ID : A_DTS Duration : 2 h 43 min Bit rate mode : Constant Bit rate : 384 kb/s Channel(s) : 2 channels Channel layout : L R Sampling rate : 48.0 kHz Frame rate : 93.750 FPS (512 SPF) Bit depth : 16 bits Compression mode : Lossy Stream size : 448 MiB (23%) Title : www.DVDWO.site Language : Malayalam Default : No Forced : No CLICK HERE TO DOWNLOAD Please Seed Back After Download
  15. Brother's Day 2019 Malayalam 700MB XVID MP3 SCREENSHOTS Click on image to view full size CLICK HERE TO DOWNLOAD Please Seed Back After Download